I start to re-upload all of them plus some new one now in January 2013. Every thing before that date as been deleted by the authority. Enjoy the music and if you like a band just buy it at your music store.
.

Wednesday, March 13, 2013

Gong / Live in Paris Bataclan 73



LINK: Au Bataclan 1973



Track  1

     Filename E:\Z-POST\GONG - Live In Paris - Bataclan 1973  (EAC,log,cue,flac,scans)\01 - Introduction - Tout Va Bien.wav

     Pre-gap length  0:00:02.00

     Peak level 41.6 %
     Track quality 100.0 %
     Test CRC E37DC021
     Copy CRC E37DC021
     Copy OK

Track  2

     Filename E:\Z-POST\GONG - Live In Paris - Bataclan 1973  (EAC,log,cue,flac,scans)\02 - Dynamite - I'm Your Animal.wav

     Peak level 90.9 %
     Track quality 99.9 %
     Test CRC E4FE97DB
     Copy CRC 4FAE7D1B
     Copy OK

Track  3

     Filename E:\Z-POST\GONG - Live In Paris - Bataclan 1973  (EAC,log,cue,flac,scans)\03 - Tic Toc.wav

     Peak level 100.0 %
     Track quality 100.0 %
     Test CRC 7A531099
     Copy CRC 7A531099
     Copy OK

Track  4

     Filename E:\Z-POST\GONG - Live In Paris - Bataclan 1973  (EAC,log,cue,flac,scans)\04 - Taliesin.wav

     Peak level 89.9 %
     Track quality 99.8 %
     Test CRC F36586EA
     Copy CRC F36586EA
     Copy OK

Track  5

     Filename E:\Z-POST\GONG - Live In Paris - Bataclan 1973  (EAC,log,cue,flac,scans)\05 - Inside Your Head.wav

     Peak level 97.6 %
     Track quality 100.0 %
     Test CRC 581AFB29
     Copy CRC 581AFB29
     Copy OK

Track  6

     Filename E:\Z-POST\GONG - Live In Paris - Bataclan 1973  (EAC,log,cue,flac,scans)\06 - You Can't Kill Me.wav

     Peak level 97.7 %
     Track quality 100.0 %
     Test CRC B9B07BF3
     Copy CRC B9B07BF3
     Copy OK

Track  7

     Filename E:\Z-POST\GONG - Live In Paris - Bataclan 1973  (EAC,log,cue,flac,scans)\07 - Flute Salad.wav

     Peak level 89.3 %
     Track quality 100.0 %
     Test CRC A20F7ADE
     Copy CRC A20F7ADE
     Copy OK

Track  8

     Filename E:\Z-POST\GONG - Live In Paris - Bataclan 1973  (EAC,log,cue,flac,scans)\08 - Pussy.wav

     Peak level 98.7 %
     Track quality 100.0 %
     Test CRC C5D72117
     Copy CRC C5D72117
     Copy OK

Track  9

     Filename E:\Z-POST\GONG - Live In Paris - Bataclan 1973  (EAC,log,cue,flac,scans)\09 - Radio Gnome I & II.wav

     Peak level 83.0 %
     Track quality 100.0 %
     Test CRC 4610D1B8
     Copy CRC 4610D1B8
     Copy OK

Track 10

     Filename E:\Z-POST\GONG - Live In Paris - Bataclan 1973  (EAC,log,cue,flac,scans)\10 - Flying Teapot.wav

     Peak level 84.0 %
     Track quality 100.0 %
     Test CRC 259783E8
     Copy CRC 259783E8
     Copy OK

Track 11

     Filename E:\Z-POST\GONG - Live In Paris - Bataclan 1973  (EAC,log,cue,flac,scans)\11 - Wet Drum Sandwich (Encore).wav

     Pre-gap length  0:00:00.01

     Peak level 84.0 %
     Track quality 100.0 %
     Test CRC 740E40AB
     Copy CRC 740E40AB
     Copy OK




No comments: